Primal Fear - Дискография (1998-2012) (Lossless)

Primal Fear - Дискография (1998-2012) (Lossless)
Сategory:Music
Style:Heavy Power Metal
Country:Germany
Format:FLAC
Size:9.71 GB
Seeded:Deleted
Rate:
Primal Fear - Дискография (1998-2012) (Lossless)
4.9/5 votes: 11
Added:07/10/2012 22:29:52
Files:317
Downloaded:183 (Taken - 830) Seeded 1 Downloading 0
Last seeded:17/10/2019 04:06:43
Moderation:Moderated by Che
Description:
Albums / Альбомы:
[spoiler=1998 Primal Fear [1998, Nuclear Blast, NB 302-2, Germany]]01. Primal Fear
02. Chainbreaker
03. Silver & Gold
04. Promised Land
05. Formula One
06. Dollars
07. Nine Lives
08. Tears Of Rage
09. Speedking
10. Battalions Of Hate
11. Running In The Dust
12. Thunderdome
[spoiler=Лог создания рипа]Exact Audio Copy V1.0 beta 3 from 29. August 2011

EAC extraction logfile from 1. December 2011, 19:31

Primal Fear / Primal Fear

Used drive : HL-DT-STDVDRAM GH22NS50 Adapter: 1 ID: 1

Read mode : Secure
Utilize accurate stream : Yes
Defeat audio cache : Yes
Make use of C2 pointers : No

Read offset correction : 667
Overread into Lead-In and Lead-Out : No
Fill up missing offset samples with silence : Yes
Delete leading and trailing silent blocks : No
Null samples used in CRC calculations : Yes
Used interface : Native Win32 interface for Win NT & 2000

Used output format : Internal WAV Routines
Sample format : 44.100 Hz; 16 Bit; Stereo

TOC of the extracted CD

Track | Start | Length | Start sector | End sector
---------------------------------------------------------
1 | 0:00.00 | 0:34.40 | 0 | 2589
2 | 0:34.40 | 4:25.35 | 2590 | 22499
3 | 5:00.00 | 3:13.17 | 22500 | 36991
4 | 8:13.17 | 4:25.25 | 36992 | 56891
5 | 12:38.42 | 4:57.53 | 56892 | 79219
6 | 17:36.20 | 3:59.35 | 79220 | 97179
7 | 21:35.55 | 3:08.45 | 97180 | 111324
8 | 24:44.25 | 6:48.50 | 111325 | 141974
9 | 31:33.00 | 4:01.30 | 141975 | 160079
10 | 35:34.30 | 3:51.00 | 160080 | 177404
11 | 39:25.30 | 4:38.55 | 177405 | 198309
12 | 44:04.10 | 3:45.40 | 198310 | 215224

Range status and errors

Selected range

Filename C:\Music CD\Primal Fear - Primal Fear.wav

Peak level 98.4 %
Extraction speed 1.7 X
Range quality 100.0 %
Test CRC 832F2292
Copy CRC 832F2292
Copy OK

No errors occurred

AccurateRip summary

Track 1 accurately ripped (confidence 4) [E84B2D42] (AR v2)
Track 2 accurately ripped (confidence 4) [F000CD3D] (AR v2)
Track 3 accurately ripped (confidence 4) [F0401A09] (AR v2)
Track 4 accurately ripped (confidence 4) [2F17AF2C] (AR v2)
Track 5 accurately ripped (confidence 4) [9D1E7A22] (AR v2)
Track 6 accurately ripped (confidence 4) [4CD0AE88] (AR v2)
Track 7 accurately ripped (confidence 4) [923A54F8] (AR v2)
Track 8 accurately ripped (confidence 4) [E4945A1C] (AR v2)
Track 9 accurately ripped (confidence 4) [18957C96] (AR v2)
Track 10 accurately ripped (confidence 4) [6A28FF5B] (AR v2)
Track 11 accurately ripped (confidence 4) [EC81946D] (AR v2)
Track 12 accurately ripped (confidence 4) [1C3CC3BF] (AR v2)

All tracks accurately ripped

End of status report

==== Log checksum 114B1886784C3E16D5FE46B82571F9CB36085A380F5021EA2D422AD1C6782E7B ====[/spoiler][/spoiler]
[spoiler=1998 - Primal Fear [2010, Metal Mind, Mass CD 1406 DG, Poland]]01. Primal Fear
02. Chainbreaker
03. Silver & Gold
04. Promised Land
05. Formula One
06. Dollars
07. Nine Lives
08. Tears Of Rage
09. Speedking
10. Battalions Of Hate
11. Running In The Dust
12. Thunderdome
13. Breaker
[spoiler=Лог создания рипа]Exact Audio Copy V0.99 prebeta 5 from 4. May 2009

Отчёт EAC об извлечении, выполненном 4. июня 2011, 15:30

Primal Fear / Primal Fear

Дисковод: ASUS DRW-1814BL Adapter: 4 ID: 1

Режим чтения : Достоверность
Использование точного потока : Да
Отключение кэша аудио : Да
Использование указателей C2 : Нет

Коррекция смещения при чтении : 6
Способность читать области Lead-in и Lead-out : Нет
Заполнение пропущенных сэмплов тишиной : Да
Удаление блоков с тишиной в начале и конце : Нет
При вычислениях CRC использовались нулевые сэмплы : Да
Интерфейс : Установленный внешний ASPI-интерфейс

Выходной формат : Пользовательский кодировщик
Выбранный битрейт : 1024 kBit/s
Качество : Высокий
Добавление ID3-тэга : Нет
Утилита сжатия : C:\Program Files\Exact Audio Copy\FLAC\FLAC.EXE
Дополнительные параметры : -6 -V -T "ARTIST=%a" -T "TITLE=%t" -T "ALBUM=%g" -T "DATE=%y" -T "TRACKNUMBER=%n" -T "GENRE=%m" -T "COMMENT=%e" %s -o %d

TOC извлечённого CD

Трек | Старт | Длительность | Начальный сектор | Конечный сектор
---------------------------------------------------------------------
1 | 0:00.00 | 0:34.40 | 0 | 2589
2 | 0:34.40 | 4:25.35 | 2590 | 22499
3 | 5:00.00 | 3:13.17 | 22500 | 36991
4 | 8:13.17 | 4:25.25 | 36992 | 56891
5 | 12:38.42 | 4:57.53 | 56892 | 79219
6 | 17:36.20 | 3:59.35 | 79220 | 97179
7 | 21:35.55 | 3:08.45 | 97180 | 111324
8 | 24:44.25 | 6:48.50 | 111325 | 141974
9 | 31:33.00 | 4:01.30 | 141975 | 160079
10 | 35:34.30 | 3:51.00 | 160080 | 177404
11 | 39:25.30 | 4:38.55 | 177405 | 198309
12 | 44:04.10 | 3:45.40 | 198310 | 215224
13 | 47:49.50 | 3:29.38 | 215225 | 230937[/spoiler][/spoiler]
[spoiler=1999 - Jaws Of Death [Irond, CD 02-269, Russia]]01. Jaws Of Death
02. Final Embrace
03. Save A Prayer
04. Church Of Blood
05. Into The Future
06. Under Your Spell
07. Play To Kill
08. Nation In Fear
09. When The Night Comes
10. Fight To Survive
11. Hatred In My Soul
12. Kill The King
[spoiler=Лог создания рипа]Exact Audio Copy V1.0 beta 3 from 29. August 2011

EAC extraction logfile from 6. January 2012, 16:22

Primal Fear / Jaws Of Death

Used drive : PIONEER DVD-RW DVR-112D Adapter: 1 ID: 0

Read mode : Secure
Utilize accurate stream : Yes
Defeat audio cache : Yes
Make use of C2 pointers : No

Read offset correction : 48
Overread into Lead-In and Lead-Out : No
Fill up missing offset samples with silence : Yes
Delete leading and trailing silent blocks : No
Null samples used in CRC calculations : Yes
Used interface : Installed external ASPI interface

Used output format : User Defined Encoder
Selected bitrate : 1024 kBit/s
Quality : High
Add ID3 tag : No
Command line compressor : C:\Program Files\Exact Audio Copy\FLAC\FLAC.EXE
Additional command line options : -V -8 -T "Date=%year%" -T "Genre=%genre%" %source%

TOC of the extracted CD

Track | Start | Length | Start sector | End sector
---------------------------------------------------------
1 | 0:00.00 | 0:22.22 | 0 | 1671
2 | 0:22.22 | 5:07.66 | 1672 | 24762
3 | 5:30.13 | 3:37.34 | 24763 | 41071
4 | 9:07.47 | 5:14.09 | 41072 | 64630
5 | 14:21.56 | 4:05.58 | 64631 | 83063
6 | 18:27.39 | 5:36.13 | 83064 | 108276
7 | 24:03.52 | 4:01.16 | 108277 | 126367
8 | 28:04.68 | 5:24.45 | 126368 | 150712
9 | 33:29.38 | 5:15.17 | 150713 | 174354
10 | 38:44.55 | 5:59.46 | 174355 | 201325
11 | 44:44.26 | 4:55.07 | 201326 | 223457
12 | 49:39.33 | 4:32.30 | 223458 | 243887

Range status and errors

Selected range

Filename C:\CDRip by Deminbek\Primal Fear - Jaws of Death [Irond 02-269].wav

Peak level 98.8 %
Extraction speed 7.3 X
Range quality 100.0 %
Test CRC C4AAD996
Copy CRC C4AAD996
Copy OK

No errors occurred

AccurateRip summary

Track 1 accurately ripped (confidence 2) [0186658E] (AR v1)
Track 2 accurately ripped (confidence 2) [90A3189E] (AR v1)
Track 3 accurately ripped (confidence 2) [9E859B71] (AR v1)
Track 4 accurately ripped (confidence 2) [E0C57CA2] (AR v1)
Track 5 accurately ripped (confidence 2) [0336C1E0] (AR v1)
Track 6 accurately ripped (confidence 2) [D73FC411] (AR v1)
Track 7 accurately ripped (confidence 2) [B12E8417] (AR v1)
Track 8 accurately ripped (confidence 2) [C59B083E] (AR v1)
Track 9 accurately ripped (confidence 2) [55AB5286] (AR v1)
Track 10 accurately ripped (confidence 2) [8C87E1DE] (AR v1)
Track 11 accurately ripped (confidence 2) [9F1AFBAF] (AR v1)
Track 12 accurately ripped (confidence 2) [2A3A10D6] (AR v1)

==== Log checksum 1748AE1F7BAA0E0B90D42A3168587A3D0FC613AA99A82DBCF9DCD2A65F576F54 ====
All tracks accurately ripped

End of status report[/spoiler][/spoiler]
[spoiler=1999 - Jaws Of Death [VICP-60725, Japan]]01. Jaws Of Death (Introduction)
02. Final Embrace
03. Save A Prayer
04. Church Of Blood
05. Into The Future
06. Under Your Spell
07. Play To Kill
08. Nation In Fear
09. When The Night Comes
10. Fight To Survive
11. Hatred In My Soul
12. Horrorscoop (Bonus Track For Japan)
[spoiler=Лог создания рипа]Exact Audio Copy V0.99 prebeta 5 from 4. May 2009

Отчёт EAC об извлечении, выполненном 5. июля 2011, 17:19

Primal Fear / Jaws Of Death

Дисковод: ASUS DRW-1814BL Adapter: 4 ID: 1

Режим чтения : Достоверность
Использование точного потока : Да
Отключение кэша аудио : Да
Использование указателей C2 : Нет

Коррекция смещения при чтении : 6
Способность читать области Lead-in и Lead-out : Нет
Заполнение пропущенных сэмплов тишиной : Да
Удаление блоков с тишиной в начале и конце : Нет
При вычислениях CRC использовались нулевые сэмплы : Да
Интерфейс : Установленный внешний ASPI-интерфейс

Выходной формат : Пользовательский кодировщик
Выбранный битрейт : 1024 kBit/s
Качество : Высокий
Добавление ID3-тэга : Нет
Утилита сжатия : C:\Program Files\Exact Audio Copy\FLAC\FLAC.EXE
Дополнительные параметры : -6 -V -T "ARTIST=%a" -T "TITLE=%t" -T "ALBUM=%g" -T "DATE=%y" -T "TRACKNUMBER=%n" -T "GENRE=%m" -T "COMMENT=%e" %s -o %d

TOC извлечённого CD

Трек | Старт | Длительность | Начальный сектор | Конечный сектор
---------------------------------------------------------------------
1 | 0:00.00 | 0:22.65 | 0 | 1714
2 | 0:22.65 | 5:07.50 | 1715 | 24789
3 | 5:30.40 | 3:35.42 | 24790 | 40956
4 | 9:06.07 | 5:13.60 | 40957 | 64491
5 | 14:19.67 | 4:05.18 | 64492 | 82884
6 | 18:25.10 | 5:35.27 | 82885 | 108036
7 | 24:00.37 | 4:01.28 | 108037 | 126139
8 | 28:01.65 | 5:24.32 | 126140 | 150471
9 | 33:26.22 | 5:15.28 | 150472 | 174124
10 | 38:41.50 | 5:59.32 | 174125 | 201081
11 | 44:41.07 | 4:55.13 | 201082 | 223219
12 | 49:36.20 | 5:44.05 | 223220 | 249024[/spoiler][/spoiler]
[spoiler=2000 - Nuclear Fire [2000, Irond, CD 00-14, Russia]]01. Angel In Black
02. Kiss Of Death
03. Back From Hell
04. Now Or Never
05. Fight The Fire
06. Eye Of An Eagle
07. Bleed For Me
08. Nuclear Fire
09. Red Rain
10. Iron Fist In A Velvet Glove (Bonustrack)
11. Fire On The Horizon
12. Living For Metal
[spoiler=Лог создания рипа]Exact Audio Copy V0.99 prebeta 5 from 4. May 2009

EAC extraction logfile from 22. September 2010, 13:38

Primal Fear / Nuclear Fire

Used drive : PIONEER DVD-RW DVR-112D Adapter: 1 ID: 0

Read mode : Secure
Utilize accurate stream : Yes
Defeat audio cache : Yes
Make use of C2 pointers : No

Read offset correction : 48
Overread into Lead-In and Lead-Out : No
Fill up missing offset samples with silence : Yes
Delete leading and trailing silent blocks : No
Null samples used in CRC calculations : Yes
Used interface : Installed external ASPI interface

Used output format : User Defined Encoder
Selected bitrate : 1024 kBit/s
Quality : High
Add ID3 tag : No
Command line compressor : C:\Program Files\Exact Audio Copy\FLAC\FLAC.EXE
Additional command line options : -8 -V %s

TOC of the extracted CD

Track | Start | Length | Start sector | End sector
---------------------------------------------------------
1 | 0:00.00 | 3:58.57 | 0 | 17906
2 | 3:58.57 | 3:49.35 | 17907 | 35116
3 | 7:48.17 | 3:45.70 | 35117 | 52061
4 | 11:34.12 | 5:33.40 | 52062 | 77076
5 | 17:07.52 | 4:23.13 | 77077 | 96814
6 | 21:30.65 | 4:27.61 | 96815 | 116900
7 | 25:58.51 | 5:04.03 | 116901 | 139703
8 | 31:02.54 | 4:23.06 | 139704 | 159434
9 | 35:25.60 | 4:50.63 | 159435 | 181247
10 | 40:16.48 | 5:17.36 | 181248 | 205058
11 | 45:34.09 | 3:30.48 | 205059 | 220856
12 | 49:04.57 | 3:41.42 | 220857 | 237473

Range status and errors

Selected range

Filename C:\CDRip by Deminbek\Primal Fear - Nuclear Fire.wav

Peak level 98.8 %
Range quality 99.9 %
Test CRC 4F3CA387
Copy CRC 4F3CA387
Copy OK

No errors occurred

AccurateRip summary

Track 1 cannot be verified as accurate (confidence 14) [4D9DD27B], AccurateRip returned [9203EB3C]
Track 2 cannot be verified as accurate (confidence 14) [C6E3AF97], AccurateRip returned [7980D696]
Track 3 cannot be verified as accurate (confidence 14) [E7D9FD77], AccurateRip returned [A0DA9626]
Track 4 cannot be verified as accurate (confidence 14) [A6D271A8], AccurateRip returned [BBF445C8]
Track 5 cannot be verified as accurate (confidence 14) [FAB728A7], AccurateRip returned [4E33CCB3]
Track 6 cannot be verified as accurate (confidence 13) [2830FA65], AccurateRip returned [A5FBB6B9]
Track 7 cannot be verified as accurate (confidence 12) [7BCBF9F5], AccurateRip returned [4EFB3A91]
Track 8 cannot be verified as accurate (confidence 14) [AC67A293], AccurateRip returned [F863CBDB]
Track 9 cannot be verified as accurate (confidence 14) [1E1104CD], AccurateRip returned [77CFCBEE]
Track 10 cannot be verified as accurate (confidence 14) [DFD2B602], AccurateRip returned [B867D516]
Track 11 cannot be verified as accurate (confidence 14) [0CFAD25F], AccurateRip returned [CFB6EC28]
Track 12 cannot be verified as accurate (confidence 14) [A4E1568D], AccurateRip returned [9F373804]

No tracks could be verified as accurate
You may have a different pressing from the one(s) in the database

End of status report[/spoiler][/spoiler]
[spoiler=2000 - Nuclear Fire [2010, Metal Mind, Mass CD 1408 DG, Poland]]01. Angel In Black
02. Kiss Of Death
03. Back From Hell
04. Now Or Never
05. Fight The Fire
06. Eye Of An Eagle
07. Bleed For Me
08. Nuclear Fire
09. Red Rain
10. Iron Fist In A Velvet Glove
11. Fire On The Horizon
12. Living For Metal
13. Out In The Fields
[spoiler=Лог создания рипа]Exact Audio Copy V1.0 beta 3 from 29. August 2011

EAC extraction logfile from 6. January 2012, 15:49

Primal Fear / Nuclear Fire

Used drive : PIONEER DVD-RW DVR-112D Adapter: 1 ID: 0

Read mode : Secure
Utilize accurate stream : Yes
Defeat audio cache : Yes
Make use of C2 pointers : No

Read offset correction : 48
Overread into Lead-In and Lead-Out : No
Fill up missing offset samples with silence : Yes
Delete leading and trailing silent blocks : No
Null samples used in CRC calculations : Yes
Used interface : Installed external ASPI interface

Used output format : User Defined Encoder
Selected bitrate : 1024 kBit/s
Quality : High
Add ID3 tag : No
Command line compressor : C:\Program Files\Exact Audio Copy\FLAC\FLAC.EXE
Additional command line options : -V -8 -T "Date=%year%" -T "Genre=%genre%" %source%

TOC of the extracted CD

Track | Start | Length | Start sector | End sector
---------------------------------------------------------
1 | 0:00.00 | 3:58.62 | 0 | 17911
2 | 3:58.62 | 3:49.41 | 17912 | 35127
3 | 7:48.28 | 3:45.55 | 35128 | 52057
4 | 11:34.08 | 5:33.06 | 52058 | 77038
5 | 17:07.14 | 4:22.55 | 77039 | 96743
6 | 21:29.69 | 4:27.68 | 96744 | 116836
7 | 25:57.62 | 5:03.60 | 116837 | 139621
8 | 31:01.47 | 4:22.48 | 139622 | 159319
9 | 35:24.20 | 4:50.63 | 159320 | 181132
10 | 40:15.08 | 5:17.47 | 181133 | 204954
11 | 45:32.55 | 3:30.57 | 204955 | 220761
12 | 49:03.37 | 3:43.60 | 220762 | 237546
13 | 52:47.22 | 3:57.08 | 237547 | 255329
14 | 59:16.30 | 11:14.12 | 266730 | 317291

Range status and errors

Selected range

Filename C:\CDRip by Deminbek\Primal Fear - Nuclear Fire [MASS CD 1408 DG].wav

Peak level 98.9 %
Extraction speed 7.4 X
Range quality 99.9 %
Test CRC D0897EBE
Copy CRC D0897EBE
Copy OK

No errors occurred

AccurateRip summary

Track 1 accurately ripped (confidence 1) [AD5C3181] (AR v2)
Track 2 accurately ripped (confidence 1) [FC826335] (AR v2)
Track 3 accurately ripped (confidence 1) [32922240] (AR v2)
Track 4 accurately ripped (confidence 1) [5E532158] (AR v2)
Track 5 accurately ripped (confidence 1) [0CB943BF] (AR v2)
Track 6 accurately ripped (confidence 1) [A3FBF37F] (AR v2)
Track 7 accurately ripped (confidence 1) [531C8A3E] (AR v2)
Track 8 accurately ripped (confidence 1) [363F4C4A] (AR v2)
Track 9 accurately ripped (confidence 1) [2E046C06] (AR v2)
Track 10 accurately ripped (confidence 1) [F73B1F30] (AR v2)
Track 11 accurately ripped (confidence 1) [92BAED36] (AR v2)
Track 12 accurately ripped (confidence 1) [CD5D7289] (AR v2)
Track 13 accurately ripped (confidence 1) [B1B0507D] (AR v2)

All tracks accurately ripped

End of status report

==== Log checksum 24BE3693850B0C07D1E62378AAB8B3F005DDCDB0ED08C2A36936A1CCF4C31047 ====[/spoiler][/spoiler]
[spoiler=2001 - Horrorscope [MCD][Nuclear Blast, NB 27361 67062, Germany]]01. Under Your Spell
02. Out In The Fields
03. Horrorscope
04. Breaker
05. Kill The King
[spoiler=Лог создания рипа]EAC extraction logfile from 5. December 2003, 15:02 for CD
PRIMAL FEAR / Horrorscope

Used drive : TEAC CD-532E-B Adapter: 1 ID: 1
Read mode : Secure with NO C2, accurate stream, disable cache
Read offset correction : 684
Overread into Lead-In and Lead-Out : No

Used output format : Internal WAV Routines
44.100 Hz; 16 Bit; Stereo

Other options :
Fill up missing offset samples with silence : Yes
Delete leading and trailing silent blocks : No
Installed external ASPI interface

Range status and errors
Selected range
Filename E:\Wav1\PRIMAL FEAR - 2001 - Horrorscope.wav

Peak level 97.9 %
Range quality 100.0 %
CRC 0350C4F4
Copy OK

No errors occured

End of status report[/spoiler][/spoiler]
[spoiler=2002 - Black Sun [Nuclear Blast, 27361 65002, Germany]]01. Countdown To Insanity
02. Black Sun
03. Armageddon
04. Lightyears From Home
05. Revolution
06. Fear
07. Mind Control
08. Magic Eye
09. Mind Machine
10. Silence
11. We Go Down
12. Cold Day In Hell
13. Controlled
[spoiler=Лог создания рипа]Exact Audio Copy V1.0 beta 3 from 29. August 2011

EAC extraction logfile from 24. March 2012, 17:45

Primal Fear / Black Sun

Used drive : HL-DT-STDVDRAM GH22NS50 Adapter: 1 ID: 1

Read mode : Secure
Utilize accurate stream : Yes
Defeat audio cache : Yes
Make use of C2 pointers : No

Read offset correction : 667
Overread into Lead-In and Lead-Out : No
Fill up missing offset samples with silence : Yes
Delete leading and trailing silent blocks : No
Null samples used in CRC calculations : Yes
Used interface : Native Win32 interface for Win NT & 2000

Used output format : Internal WAV Routines
Sample format : 44.100 Hz; 16 Bit; Stereo

TOC of the extracted CD

Track | Start | Length | Start sector | End sector
---------------------------------------------------------
1 | 0:00.00 | 1:43.47 | 0 | 7771
2 | 1:43.47 | 4:01.40 | 7772 | 25886
3 | 5:45.12 | 4:05.22 | 25887 | 44283
4 | 9:50.34 | 4:40.19 | 44284 | 65302
5 | 14:30.53 | 4:02.17 | 65303 | 83469
6 | 18:32.70 | 4:19.45 | 83470 | 102939
7 | 22:52.40 | 4:58.14 | 102940 | 125303
8 | 27:50.54 | 5:16.12 | 125304 | 149015
9 | 33:06.66 | 5:36.17 | 149016 | 174232
10 | 38:43.08 | 4:39.26 | 174233 | 195183
11 | 43:22.34 | 5:52.71 | 195184 | 221654
12 | 49:15.30 | 4:10.02 | 221655 | 240406
13 | 53:25.32 | 3:36.40 | 240407 | 256646

Range status and errors

Selected range

Filename C:\Music CD\Primal Fear - Black Sun.wav

Peak level 98.8 %
Extraction speed 2.0 X
Range quality 99.9 %
Test CRC 243AFAE9
Copy CRC 243AFAE9
Copy OK

No errors occurred

AccurateRip summary

Track 1 accurately ripped (confidence 16) [58E1A9E3] (AR v1)
Track 2 accurately ripped (confidence 16) [295E3B37] (AR v1)
Track 3 accurately ripped (confidence 16) [50D588AB] (AR v1)
Track 4 accurately ripped (confidence 16) [0F254E3E] (AR v1)
Track 5 accurately ripped (confidence 16) [8097C745] (AR v1)
Track 6 accurately ripped (confidence 15) [8BDA9389] (AR v1)
Track 7 accurately ripped (confidence 15) [44D95EAF] (AR v1)
Track 8 accurately ripped (confidence 15) [9147D4E1] (AR v1)
Track 9 accurately ripped (confidence 15) [7FD71F4B] (AR v1)
Track 10 accurately ripped (confidence 14) [196B8DBA] (AR v1)
Track 11 accurately ripped (confidence 15) [230572D9] (AR v1)
Track 12 accurately ripped (confidence 15) [755F620E] (AR v1)
Track 13 accurately ripped (confidence 14) [97A12C31] (AR v1)

All tracks accurately ripped

End of status report

==== Log checksum 6A1F8C698B9830894869CDDF74D41384B27B255F32CFE9E29E7921C4884EEBD7 ====[/spoiler][/spoiler]
[spoiler=2002 - Black Sun [Seoul Rec., SRCD 2609, Korea]]01. Countdown To Insanity
02. Black Sun
03. Armageddon
04. Lightyears From Home
05. Revolution
06. Fear
07. Mind Control
08. Magic Eye
09. Mind Machine
10. Silence
11. We Go Down
12. Cold Day In Hell
13. Controlled
[spoiler=Лог создания рипа]Exact Audio Copy V0.99 prebeta 5 from 4. May 2009

Отчёт EAC об извлечении, выполненном 18. января 2012, 16:56

Primal Fear / Black Sun

Дисковод: ASUS DRW-1814BL Adapter: 4 ID: 1

Режим чтения : Достоверность
Использование точного потока : Да
Отключение кэша аудио : Да
Использование указателей C2 : Нет

Коррекция смещения при чтении : 6
Способность читать области Lead-in и Lead-out : Нет
Заполнение пропущенных сэмплов тишиной : Да
Удаление блоков с тишиной в начале и конце : Нет
При вычислениях CRC использовались нулевые сэмплы : Да
Интерфейс : Установленный внешний ASPI-интерфейс

Выходной формат : Пользовательский кодировщик
Выбранный битрейт : 1024 kBit/s
Качество : Высокий
Добавление ID3-тэга : Нет
Утилита сжатия : C:\Program Files\Exact Audio Copy\FLAC\FLAC.EXE
Дополнительные параметры : -6 -V -T "ARTIST=%a" -T "TITLE=%t" -T "ALBUM=%g" -T "DATE=%y" -T "TRACKNUMBER=%n" -T "GENRE=%m" -T "COMMENT=%e" %s -o %d

TOC извлечённого CD

Трек | Старт | Длительность | Начальный сектор | Конечный сектор
---------------------------------------------------------------------
1 | 0:00.00 | 1:43.70 | 0 | 7794
2 | 1:43.70 | 4:01.28 | 7795 | 25897
3 | 5:45.23 | 4:05.22 | 25898 | 44294
4 | 9:50.45 | 4:40.20 | 44295 | 65314
5 | 14:30.65 | 4:02.18 | 65315 | 83482
6 | 18:33.08 | 4:19.45 | 83483 | 102952
7 | 22:52.53 | 4:58.15 | 102953 | 125317
8 | 27:50.68 | 5:16.10 | 125318 | 149027
9 | 33:07.03 | 5:36.17 | 149028 | 174244
10 | 38:43.20 | 4:39.38 | 174245 | 195207
11 | 43:22.58 | 5:52.60 | 195208 | 221667
12 | 49:15.43 | 4:10.02 | 221668 | 240419
13 | 53:25.45 | 3:37.33 | 240420 | 256727[/spoiler][/spoiler]
[spoiler=2004 - Devil's Ground [2004, Nuclear Blast, NB 1225-2, Germany]]01. Metal Is Forever
02. Suicide And Mania
03. Visions Of Fate
04. Sea Of Flames
05. The Healer
06. Sacred Illusion
07. In Metal
08. Soulchaser
09. Cyclone 13
10. Wings Of Desire
11. Heart Of A Brave
12. Devil's Ground
[spoiler=Лог создания рипа]Exact Audio Copy V1.0 beta 1 from 15. November 2010

EAC extraction logfile from 24. September 2011, 14:36

Primal Fear / Devil's Ground

Used drive : SAMSUNG DVD-ROM SD-616E Adapter: 3 ID: 0

Read mode : Secure
Utilize accurate stream : Yes
Defeat audio cache : Yes
Make use of C2 pointers : No

Read offset correction : 12
Overread into Lead-In and Lead-Out : No
Fill up missing offset samples with silence : Yes
Delete leading and trailing silent blocks : No
Null samples used in CRC calculations : Yes
Used interface : Native Win32 interface for Win NT & 2000

Used output format : Internal WAV Routines
Sample format : 44.100 Hz; 16 Bit; Stereo

TOC of the extracted CD

Track | Start | Length | Start sector | End sector
---------------------------------------------------------
1 | 0:00.00 | 4:46.17 | 0 | 21466
2 | 4:46.17 | 4:03.53 | 21467 | 39744
3 | 8:49.70 | 4:49.57 | 39745 | 61476
4 | 13:39.52 | 4:00.57 | 61477 | 79533
5 | 17:40.34 | 6:40.18 | 79534 | 109551
6 | 24:20.52 | 4:02.55 | 109552 | 127756
7 | 28:23.32 | 5:14.49 | 127757 | 151355
8 | 33:38.06 | 4:52.10 | 151356 | 173265
9 | 38:30.16 | 3:55.31 | 173266 | 190921
10 | 42:25.47 | 6:45.64 | 190922 | 221360
11 | 49:11.36 | 4:54.42 | 221361 | 243452
12 | 54:06.03 | 2:07.06 | 243453 | 252983

Range status and errors

Selected range

Filename C:\Documents and Settings\Borya\Desktop\4feprim\Primal Fear - Devil's Ground.wav

Peak level 98.8 %
Extraction speed 0.1 X
Range quality 99.9 %
Copy CRC 5C8F2149
Copy OK

No errors occurred

AccurateRip summary

Track 1 accurately ripped (confidence 18) [EDFC66B8]
Track 2 accurately ripped (confidence 18) [4173E7E9]
Track 3 accurately ripped (confidence 18) [4751CED8]
Track 4 accurately ripped (confidence 18) [B0EA1F67]
Track 5 accurately ripped (confidence 18) [4F99395B]
Track 6 accurately ripped (confidence 18) [858CE431]
Track 7 accurately ripped (confidence 18) [733B03DE]
Track 8 accurately ripped (confidence 18) [7D6FC28E]
Track 9 accurately ripped (confidence 18) [AC0B6E10]
Track 10 accurately ripped (confidence 18) [D077465B]
Track 11 accurately ripped (confidence 18) [6628A51E]
Track 12 accurately ripped (confidence 18) [F84D8A27]

All tracks accurately ripped

End of status report[/spoiler][/spoiler]
[spoiler=2004 - Devil's Ground [2010, Metal Mind, Mass CD 1409 DG, Poland]]01. Metal Is Forever
02. Suicide And Mania
03. Visions Of Fate
04. Sea Of Flames
05. The Healer
06. Sacred Illusion
07. In Metal
08. Soulchaser
09. Colony 13
10. Wings Of Desire
11. Heart Of A Brave
12. Devil's Ground
13. Die Young
14. Metal Is Forever (5.1 Mix)
15. The Healer (5.1 Mix)
16. The Rover
[spoiler=Лог создания рипа]Exact Audio Copy V0.99 prebeta 5 from 4. May 2009

Отчёт EAC об извлечении, выполненном 8. июня 2011, 17:07

Primal Fear / Devil's Ground

Дисковод: ASUS DRW-1814BL Adapter: 4 ID: 1

Режим чтения : Достоверность
Использование точного потока : Да
Отключение кэша аудио : Да
Использование указателей C2 : Нет

Коррекция смещения при чтении : 6
Способность читать области Lead-in и Lead-out : Нет
Заполнение пропущенных сэмплов тишиной : Да
Удаление блоков с тишиной в начале и конце : Нет
При вычислениях CRC использовались нулевые сэмплы : Да
Интерфейс : Установленный внешний ASPI-интерфейс

Выходной формат : Пользовательский кодировщик
Выбранный битрейт : 1024 kBit/s
Качество : Высокий
Добавление ID3-тэга : Нет
Утилита сжатия : C:\Program Files\Exact Audio Copy\FLAC\FLAC.EXE
Дополнительные параметры : -6 -V -T "ARTIST=%a" -T "TITLE=%t" -T "ALBUM=%g" -T "DATE=%y" -T "TRACKNUMBER=%n" -T "GENRE=%m" -T "COMMENT=%e" %s -o %d

TOC извлечённого CD

Трек | Старт | Длительность | Начальный сектор | Конечный сектор
---------------------------------------------------------------------
1 | 0:00.00 | 4:46.19 | 0 | 21468
2 | 4:46.19 | 4:03.51 | 21469 | 39744
3 | 8:49.70 | 4:49.61 | 39745 | 61480
4 | 13:39.56 | 4:00.46 | 61481 | 79526
5 | 17:40.27 | 6:40.31 | 79527 | 109557
6 | 24:20.58 | 4:02.33 | 109558 | 127740
7 | 28:23.16 | 5:14.28 | 127741 | 151318
8 | 33:37.44 | 4:52.17 | 151319 | 173235
9 | 38:29.61 | 3:55.32 | 173236 | 190892
10 | 42:25.18 | 6:45.64 | 190893 | 221331
11 | 49:11.07 | 4:54.40 | 221332 | 243421
12 | 54:05.47 | 2:09.08 | 243422 | 253104
13 | 56:14.55 | 4:05.44 | 253105 | 271523
14 | 60:20.24 | 4:48.44 | 271524 | 293167
15 | 65:08.68 | 6:35.09 | 293168 | 322801
16 | 71:44.02 | 4:44.34 | 322802 | 344135[/spoiler][/spoiler]
[spoiler=2005 - Seven Seals [Nuclear Blast, 27361 14950, Germany]]01. Demons and Angels
02. Rolercoaster
03. Seven Seals
04. Evil Spell
05. The Immortal Ones
06. Diabolus
07. All for One
08. Carniwar
09. Question of Honour
10. In Memory
11. The Union
12. Higher Power
[spoiler=Лог создания рипа]Exact Audio Copy V0.99 prebeta 5 from 4. May 2009

Отчёт EAC об извлечении, выполненном 17. марта 2010, 18:01

Primal Fear / Seven Seals

Дисковод: ASUS DRW-1814BL Adapter: 4 ID: 1

Режим чтения : Достоверность
Использование точного потока : Да
Отключение кэша аудио : Да
Использование указателей C2 : Нет

Коррекция смещения при чтении : 6
Способность читать области Lead-in и Lead-out : Нет
Заполнение пропущенных сэмплов тишиной : Да
Удаление блоков с тишиной в начале и конце : Нет
При вычислениях CRC использовались нулевые сэмплы : Да
Интерфейс : Установленный внешний ASPI-интерфейс

Выходной формат : Внутренние WAV-операции
Формат сэмплов : 44.100 Гц; 16 бит; стерео
Смещение при сжатии : 0

TOC извлечённого CD

Трек | Старт | Длительность | Начальный сектор | Конечный сектор
---------------------------------------------------------------------
1 | 0:00.00 | 5:32.32 | 0 | 24931
2 | 5:32.32 | 4:28.45 | 24932 | 45076
3 | 10:01.02 | 3:54.66 | 45077 | 62692
4 | 13:55.68 | 4:31.71 | 62693 | 83088
5 | 18:27.64 | 4:19.27 | 83089 | 102540
6 | 22:47.16 | 7:54.33 | 102541 | 138123
7 | 30:41.49 | 7:53.14 | 138124 | 173612
8 | 38:34.63 | 3:17.33 | 173613 | 188420
9 | 41:52.21 | 7:26.45 | 188421 | 221915
10 | 49:18.66 | 5:08.52 | 221916 | 245067
11 | 54:27.43 | 5:11.48 | 245068 | 268440
12 | 59:39.16 | 4:30.65 | 268441 | 288755
13 | 66:42.06 | 4:51.42 | 300156 | 322022[/spoiler][/spoiler]
[spoiler=2006 - Metal Is Forever [The Very Best Of 2CD][Nuclear Blast, 27361 17392, Germany]]01. Metal Is Forever
02. Chainbreaker
03. Seven Seals
04. Nuclear Fire
05. Final Embrace
06. The Healer
07. Rollercoaster
08. Armageddon
09. Angel In Black
10. Under Your Spell
11. Evil Spell
12. Running In The Dust
13. Suicide And Mania
14. Iron Fist In A Velvet Glove
15. Fear
16. Tears Of Rage

01. Out In The Fields
02. Kill The King
03. Speedking
04. Die Young
05. Metal Gods
06. Breaker
07. Seek and Destroy
08. 2 Minutes To Midnight
09. The Rover
[spoiler=Лог создания рипа]Exact Audio Copy V0.99 prebeta 5 from 4. May 2009

Отчёт EAC об извлечении, выполненном 16. ноября 2010, 17:04

Primal Fear / Metal Is Forever

Дисковод: ASUS DRW-1814BL Adapter: 4 ID: 1

Режим чтения : Достоверность
Использование точного потока : Да
Отключение кэша аудио : Да
Использование указателей C2 : Нет

Коррекция смещения при чтении : 6
Способность читать области Lead-in и Lead-out : Нет
Заполнение пропущенных сэмплов тишиной : Да
Удаление блоков с тишиной в начале и конце : Нет
При вычислениях CRC использовались нулевые сэмплы : Да
Интерфейс : Установленный внешний ASPI-интерфейс

Выходной формат : Пользовательский кодировщик
Выбранный битрейт : 1024 kBit/s
Качество : Высокий
Добавление ID3-тэга : Нет
Утилита сжатия : C:\Program Files\Exact Audio Copy\FLAC\FLAC.EXE

TOC извлечённого CD

Трек | Старт | Длительность | Начальный сектор | Конечный сектор
---------------------------------------------------------------------
1 | 0:00.00 | 4:46.70 | 0 | 21519
2 | 4:46.70 | 4:17.08 | 21520 | 40802
3 | 9:04.03 | 3:54.07 | 40803 | 58359
4 | 12:58.10 | 4:22.60 | 58360 | 78069
5 | 17:20.70 | 5:07.27 | 78070 | 101121
6 | 22:28.22 | 6:39.07 | 101122 | 131053
7 | 29:07.29 | 4:28.40 | 131054 | 151193
8 | 33:35.69 | 4:04.23 | 151194 | 169516
9 | 37:40.17 | 3:57.51 | 169517 | 187342
10 | 41:37.68 | 5:34.56 | 187343 | 212448
11 | 47:12.49 | 4:31.64 | 212449 | 232837
12 | 51:44.38 | 4:39.32 | 232838 | 253794
13 | 56:23.70 | 4:03.38 | 253795 | 272057
14 | 60:27.33 | 5:16.71 | 272058 | 295828
15 | 65:44.29 | 4:19.26 | 295829 | 315279
16 | 70:03.55 | 6:47.65 | 315280 | 345869

Характеристики диапазона извлечения и сообщения об ошибках

Выбранный диапазон

Имя файла G:\Program files\Рипаные файлы\Primal Fear - Metal Is Forever (The Very Best)\Primal Fear - Metal Is Forever.wav

Пиковый уровень 98.9 %
Качество диапазона 100.0 %
CRC копии ACC740D6
Копирование... OK

Ошибок не произошло

Конец отчёта

Exact Audio Copy V0.99 prebeta 5 from 4. May 2009

Отчёт EAC об извлечении, выполненном 16. ноября 2010, 17:18

Primal Fear / Metal Classics

Дисковод: ASUS DRW-1814BL Adapter: 4 ID: 1

Режим чтения : Достоверность
Использование точного потока : Да
Отключение кэша аудио : Да
Использование указателей C2 : Нет

Коррекция смещения при чтении : 6
Способность читать области Lead-in и Lead-out : Нет
Заполнение пропущенных сэмплов тишиной : Да
Удаление блоков с тишиной в начале и конце : Нет
При вычислениях CRC использовались нулевые сэмплы : Да
Интерфейс : Установленный внешний ASPI-интерфейс

Выходной формат : Пользовательский кодировщик
Выбранный битрейт : 1024 kBit/s
Качество : Высокий
Добавление ID3-тэга : Нет
Утилита сжатия : C:\Program Files\Exact Audio Copy\FLAC\FLAC.EXE

TOC извлечённого CD

Трек | Старт | Длительность | Начальный сектор | Конечный сектор
---------------------------------------------------------------------
1 | 0:00.00 | 3:57.35 | 0 | 17809
2 | 3:57.35 | 4:33.60 | 17810 | 38344
3 | 8:31.20 | 4:02.28 | 38345 | 56522
4 | 12:33.48 | 4:05.11 | 56523 | 74908
5 | 16:38.59 | 3:38.48 | 74909 | 91306
6 | 20:17.32 | 3:30.02 | 91307 | 107058
7 | 23:47.34 | 7:11.38 | 107059 | 139421
8 | 30:58.72 | 6:01.28 | 139422 | 166524
9 | 37:00.25 | 4:44.34 | 166525 | 187858

Характеристики диапазона извлечения и сообщения об ошибках

Выбранный диапазон

Имя файла G:\Program files\Рипаные файлы\Primal Fear - Metal Classics (Bonus CD)\Primal Fear - Metal Classics.wav

Пиковый уровень 98.9 %
Качество диапазона 100.0 %
CRC копии 3BC0B9D7
Копирование... OK

Ошибок не произошло

Конец отчёта[/spoiler][/spoiler]
[spoiler=2007 - New Religion [Frontiers Rec., FR CD 346, Italy]]01. Sign Of Fear
02. Face The Emptiness
03. Everytime It Rains
04. New Religion
05. Fighting The Darkness
06. The Darkness
07. Reprise
08. Blood On Your Hands
09. The Curse Of Sharon
10. Too Much Time
11. Psycho
12. World On Fire
13. The Man (That I Don`t Know)
[spoiler=Лог создания рипа]EAC extraction logfile from 21. September 2007, 16:45 for CD
Primal Fear / New Religion

Used drive : SONY DVD RW DW-Q28A Adapter: 5 ID: 0
Read mode : Secure with NO C2, accurate stream, disable cache
Combined read/write offset correction : 12
Overread into Lead-In and Lead-Out : No

Used output format : Internal WAV Routines
44.100 Hz; 16 Bit; Stereo

Other options :
Fill up missing offset samples with silence : Yes
Delete leading and trailing silent blocks : No
Installed external ASPI interface

Range status and errors
Selected range
Filename E:\Incoming\Primal Fear - New Religion.wav

Peak level 98.8 %
Range quality 100.0 %
CRC 16D2E023
Copy OK

No errors occured

End of status report[/spoiler][/spoiler]
[spoiler=2009 - 16.6 Before The Devil Knows You're Dead [Frontiers Rec., FR 411D, Italy]]01. Before The Devil Knows You're Dead
02. Riding The Eagle
03. Six Times Dead (16.6)
04. Black Rain
05. Under The Radar
06. Torn
07. Soar
08. Killbound
09. No Smoke Without Fire
10. Night After Night
11. Smith & Wesson
12. The Exorcist
13. Hands Of Time
14. Cry Havoc
15. Scream
[spoiler=Лог создания рипа]Exact Audio Copy V0.99 prebeta 4 from 23. January 2008

Отчёт EAC об извлечении, выполненном 22. мая 2009, 16:01

PRIMAL FEAR / 16.6 Before The Devil Knows You're Dead

Дисковод: _NEC DVD_RW ND-3500AG Adapter: 3 ID: 0

Режим чтения : Достоверность
Использование точного потока : Да
Отключение кэша аудио : Да
Использование указателей C2 : Нет

Коррекция смещения при чтении : 48
Способность читать области Lead-in и Lead-out : Нет
Заполнение пропущенных сэмплов тишиной : Да
Удаление блоков с тишиной в начале и конце : Нет
При вычислениях CRC использовались нулевые сэмплы : Да
Интерфейс : Установленный внешний ASPI-интерфейс

Выходной формат : Внутренние WAV-операции
Формат сэмплов : 44.100 Гц; 16 бит; стерео

TOC извлечённого CD

Трек | Старт | Длительность | Начальный сектор | Конечный сектор
---------------------------------------------------------------------
1 | 0:00.00 | 0:48.72 | 0 | 3671
2 | 0:48.72 | 4:58.39 | 3672 | 26060
3 | 5:47.36 | 4:00.10 | 26061 | 44070
4 | 9:47.46 | 6:07.04 | 44071 | 71599
5 | 15:54.50 | 5:26.15 | 71600 | 96064
6 | 21:20.65 | 7:13.45 | 96065 | 128584
7 | 28:34.35 | 4:16.56 | 128585 | 147840
8 | 32:51.16 | 4:13.29 | 147841 | 166844
9 | 37:04.45 | 4:52.33 | 166845 | 188777
10 | 41:57.03 | 5:01.22 | 188778 | 211374
11 | 46:58.25 | 4:45.45 | 211375 | 232794
12 | 51:43.70 | 4:47.06 | 232795 | 254325
13 | 56:31.01 | 4:21.46 | 254326 | 273946
14 | 60:52.47 | 4:00.32 | 273947 | 291978
15 | 64:53.04 | 4:38.74 | 291979 | 312902
16 | 72:04.03 | 5:33.16 | 324303 | 349293

Характеристики диапазона извлечения и сообщения об ошибках

Выбранный диапазон

Имя файла D:\PRIMAL FEAR - 2009 - 16.6 Before The Devil Knows You're Dead\PRIMAL FEAR - 16.6 Before The Devil Knows You're Dead.wav

Пиковый уровень 100.0 %
Качество диапазона 99.9 %
CRC теста 6D2819DC
CRC копии 6D2819DC
Копирование... OK

Ошибок не произошло

AccurateRip: сводка

Трек 1 нет в базе данных
Трек 2 нет в базе данных
Трек 3 нет в базе данных
Трек 4 нет в базе данных
Трек 5 нет в базе данных
Трек 6 нет в базе данных
Трек 7 нет в базе данных
Трек 8 нет в базе данных
Трек 9 нет в базе данных
Трек 10 нет в базе данных
Трек 11 нет в базе данных
Трек 12 нет в базе данных
Трек 13 нет в базе данных
Трек 14 нет в базе данных
Трек 15 нет в базе данных

Ни одного трека нет в базе AccurateRip

Конец отчёта[/spoiler][/spoiler]
[spoiler=2009 - The History Of Fear [Bonus CD][Nuclear Blast, 27361 10442, Germany]]01. Introduction
02. Angel In Black
03. Battalions Of Hate
04. Nuclear Fire
05. Chainbreaker
06. Eye Of An Eagle
07. Fight The Fire
08. Running In The Dust
09. Silver & Gold
10. Final Embrace
11. Angel In Black (Reprise)
[spoiler=Лог создания рипа]Exact Audio Copy V0.99 prebeta 5 from 4. May 2009

EAC extraction logfile from 12. September 2009, 20:05

Primal Fear / The Official Live Bootleg - Live In Wacken

Used drive : Optiarc DVD RW AD-5200S Adapter: 1 ID: 0

Read mode : Secure
Utilize accurate stream : Yes
Defeat audio cache : Yes
Make use of C2 pointers : No

Read offset correction : 48
Overread into Lead-In and Lead-Out : No
Fill up missing offset samples with silence : Yes
Delete leading and trailing silent blocks : No
Null samples used in CRC calculations : Yes
Used interface : Installed external ASPI interface

Used output format : User Defined Encoder
Selected bitrate : 1024 kBit/s
Quality : High
Add ID3 tag : No
Command line compressor : C:\Program Files\Exact Audio Copy\FLAC\FLAC.EXE
Additional command line options : -8 -V %s

TOC of the extracted CD

Track | Start | Length | Start sector | End sector
---------------------------------------------------------
1 | 0:00.00 | 0:36.54 | 0 | 2753
2 | 0:36.54 | 3:35.06 | 2754 | 18884
3 | 4:11.60 | 3:45.42 | 18885 | 35801
4 | 7:57.27 | 4:29.54 | 35802 | 56030
5 | 12:27.06 | 4:11.74 | 56031 | 74929
6 | 16:39.05 | 4:28.68 | 74930 | 95097
7 | 21:07.73 | 4:43.01 | 95098 | 116323
8 | 25:50.74 | 5:01.59 | 116324 | 138957
9 | 30:52.58 | 3:27.61 | 138958 | 154543
10 | 34:20.44 | 6:23.04 | 154544 | 183272
11 | 40:43.48 | 2:13.03 | 183273 | 193250

Range status and errors

Selected range

Filename C:\Music\Primal Fear - The Official Live Bootleg - Live In Wacken.wav

Peak level 98.9 %
Range quality 100.0 %
Test CRC DDBF6589
Copy CRC DDBF6589
Copy OK

No errors occurred

AccurateRip summary

Track 1 not present in database
Track 2 not present in database
Track 3 not present in database
Track 4 not present in database
Track 5 not present in database
Track 6 not present in database
Track 7 not present in database
Track 8 not present in database
Track 9 not present in database
Track 10 not present in database
Track 11 not present in database

None of the tracks are present in the AccurateRip database

End of status report[/spoiler][/spoiler]
[spoiler=2010 - Live In The USA [Frontiers Rec., FR CDVD 465, Italy]]01. Before The Devil Knows Youґre Dead
02. Under The Radar
03. Battalions Of Hate
04. Killbound
05. Nuclear Fire
06. Six Times Dead (16:6)
07. Angel In Black
08. Sign Of Fear
09. Fighting The Darkness
10. Riding The Eagle
11. The Final Embrace
12. Metal Is Forever
13. Hands Of Time
14. Chainbreaker
[spoiler=Лог создания рипа]Exact Audio Copy V0.99 prebeta 5 from 4. May 2009

Отчёт EAC об извлечении, выполненном 30. июля 2010, 14:38

Primal Fear / Live In The USA

Дисковод: ASUS DRW-1814BL Adapter: 4 ID: 1

Режим чтения : Достоверность
Использование точного потока : Да
Отключение кэша аудио : Да
Использование указателей C2 : Нет

Коррекция смещения при чтении : 6
Способность читать области Lead-in и Lead-out : Нет
Заполнение пропущенных сэмплов тишиной : Да
Удаление блоков с тишиной в начале и конце : Нет
При вычислениях CRC использовались нулевые сэмплы : Да
Интерфейс : Установленный внешний ASPI-интерфейс

Выходной формат : Внутренние WAV-операции
Формат сэмплов : 44.100 Гц; 16 бит; стерео
Смещение при сжатии : 0

TOC извлечённого CD

Трек | Старт | Длительность | Начальный сектор | Конечный сектор
---------------------------------------------------------------------
1 | 0:00.00 | 1:26.33 | 0 | 6482
2 | 1:26.33 | 4:54.09 | 6483 | 28541
3 | 6:20.42 | 3:47.63 | 28542 | 45629
4 | 10:08.30 | 4:43.01 | 45630 | 66855
5 | 14:51.31 | 4:17.37 | 66856 | 86167
6 | 19:08.68 | 4:58.19 | 86168 | 108536
7 | 24:07.12 | 4:28.70 | 108537 | 128706
8 | 28:36.07 | 4:33.72 | 128707 | 149253
9 | 33:10.04 | 8:43.69 | 149254 | 188547
10 | 41:53.73 | 5:28.62 | 188548 | 213209
11 | 47:22.60 | 6:34.21 | 213210 | 242780
12 | 53:57.06 | 5:52.26 | 242781 | 269206
13 | 59:49.32 | 4:41.29 | 269207 | 290310
14 | 64:30.61 | 5:40.45 | 290311 | 315855

Характеристики диапазона извлечения и сообщения об ошибках

Выбранный диапазон

Имя файла G:\Program files\Рипаные файлы\Primal Fear - 16.6 – Live in the USA - All Over the World(CD)\Primal Fear - Live In The USA.wav

Пиковый уровень 98.7 %
Качество диапазона 100.0 %
CRC копии 4B00BE03
Копирование... OK

Ошибок не произошло

Конец отчёта[/spoiler][/spoiler]
[spoiler=2011 - Scheepers [Frontiers Rec., FR CD 506, Italy]]01. Locked In The Dungeon
02. Remission Of Sin
03. Cyberfreak
04. The Fall
05. Doomsday
06. Saints Of Rock
07. Before The Dawn
08. Back On The Track
09. Dynasty
10. The Pain Of The Accused
11. Play With Fire
12. Compassion
[spoiler=Лог создания рипа]Exact Audio Copy V0.99 prebeta 4 from 23. January 2008

EAC extraction logfile from 25. February 2011, 1:00

Scheepers / Scheepers

Used drive : ATAPI iHAP122 9 Adapter: 3 ID: 0

Read mode : Secure
Utilize accurate stream : Yes
Defeat audio cache : Yes
Make use of C2 pointers : No

Read offset correction : 6
Overread into Lead-In and Lead-Out : No
Fill up missing offset samples with silence : Yes
Delete leading and trailing silent blocks : No
Null samples used in CRC calculations : Yes
Used interface : Installed external ASPI interface

Used output format : User Defined Encoder
Selected bitrate : 40 kBit/s
Quality : High
Add ID3 tag : No
Command line compressor : C:\Program Files\Exact Audio Copy\flac.exe
Additional command line options : -6 -V %s

TOC of the extracted CD

Track | Start | Length | Start sector | End sector
---------------------------------------------------------
1 | 0
Thanks:
 
 
 
 

Comments


2013-03-26 15:35:35

Дайте раздачу 

Deleted
2014-01-24 06:33:35

Thanks

Log in to add comment.